Search
 
 

Display results as :
 


Rechercher Advanced Search

Latest topics
Shopmotion


Navigation
 Portal
 Index
 Memberlist
 Profile
 FAQ
 Search
Affiliates
free forum
 

Percy-Jackson-The-Olympians-The-Lightning-Thief 2010 DVD Scr

View previous topic View next topic Go down

Percy-Jackson-The-Olympians-The-Lightning-Thief 2010 DVD Scr

Post  Admin on Thu Jul 08, 2010 9:01 am







Code:
1 link MKV:


2link:
http://www.fileserve.com/file/CSBs8BN/Ke cap tia chop - FamilySt.cO.cc.mkv.001

http://www.fileserve.com/file/AYtD66k/Ke cap tia chop - FamilySt.cO.cc.mkv.002

http://www.imdb.com/title/tt0814255/
Format : AVI
Format/Info : Audio Video Interleave
File size : 702 MiB
Duration : 1h 51mn
Overall bit rate : 883 Kbps

Video
ID : 0
Format : MPEG-4 Visual
Format profile : Advanced Simple@L5
Format settings, BVOP : Yes
Format settings, QPel : No
Format settings, GMC : No warppoints
Format settings, Matrix : Default (H.263)
Codec ID : XVID
Codec ID/Hint : XviD
Duration : 1h 51mn
Bit rate : 745 Kbps
Width : 640 pixels
Height : 272 pixels
Display aspect ratio : 2.35:1
Frame rate : 25.000 fps
Resolution : 8 bits
Colorimetry : 4:2:0
Scan type : Progressive
Bits/(Pixel*Frame) : 0.171
Stream size : 592 MiB (84%)
Writing library : XviD 1.2.1 (UTC 2008-12-04)

Audio
ID : 1
Format : MPEG Audio
Format version : Version 1
Format profile : Layer 3
Codec ID : 55
Codec ID/Hint : MP3
Duration : 1h 51mn
Bit rate mode : Constant
Bit rate : 128 Kbps
Channel(s) : 2 channels
Sampling rate : 44.1 KHz
Stream size : 102 MiB (15%)
Alignment : Split accross interleaves
Interleave, duration : 40 ms (1.00 video frame)
Interleave, preload duration : 500 ms
SCREENS:#1
VIDEO SAMPLE:#1














PLOT:
It’s the 21st century, but the gods of Mount Olympus and assorted monsters have walked out of the pages of high school student Percy Jackson’s Greek mythology texts and into his life. And they’re not happy: Zeus’ lightning bolt has been stolen, and Percy is the prime suspect. Even more troubling is the sudden disappearance of Percy’s mother. As Percy finds himself caught between angry and battling gods, he and his friends embark on a cross-country adventure to catch the true lightning thief, save Percy’s mom, and unravel a mystery more powerful than the gods themselves.

avatar
Admin
Admin

Posts : 68
Join date : 2010-06-03
Age : 30
Location : HANOI ๑๑۩۞۩๑๑ VIETNAM

View user profile http://topmovies.withme.us

Back to top Go down

View previous topic View next topic Back to top

- Similar topics

 
Permissions in this forum:
You cannot reply to topics in this forum